无法诠释-第二季 收藏

[视频名称] : 20210716002-kaien-HSDQ001.mp4, 20210716002-kaien-HSDQ002.mp4
[视频尺寸] : 3840x2160
[视频大小] : 2V/9.66G
[视频时长] : 00:34:29
[视频编码] :
Stream #0:0(eng): Video: h264 (Main) (avc1 / 0x31637661), yuv420p, 3840x2160 [SAR 1:1 DAR 16:9], 74889 kb/s, 59.94 fps, 59.94 tbr, 60k tbn, 119.88 tbc (default)
Stream #0:1(eng): Audio: aac (LC) (mp4a / 0x6134706D), 48000 Hz, stereo, fltp, 317 kb/s (default)
Stream #0:0(eng): Video: h264 (Main) (avc1 / 0x31637661), yuv420p, 1920x1080 [SAR 1:1 DAR 16:9], 46751 kb/s, 60 fps, 60 tbr, 60k tbn, 120 tbc (default)
Stream #0:1(eng): Audio: aac (LC) (mp4a / 0x6134706D), 48000 Hz, stereo, fltp, 317 kb/s (default)
[下载方式] : 百度网盘
[下载地址] : 点此获取下载地址 (售价:50积分)
下载包内为原版高清视频,绝不含第三方水印!
[在线观看] : 第1段 第2段
[视频预览] : 无法诠释-第二季 第1张
无法诠释-第二季 第2张
无法诠释-第二季 第3张
无法诠释-第二季 第4张
无法诠释-第二季 第5张

魔镜 街拍 模拍 包臀裙 短裙 裙装

有用 (0)

评论加载中...