蜜汁猫裘 – 小白兔自拍 收藏

[套图名称] : 蜜汁猫裘 – 小白兔自拍
[出境模特] : 蜜汁猫裘
[套图尺寸] : 2560x1920
[套图大小] : 30P+3V/95.9M
[下载方式] : 百度网盘
[下载地址] : 点此获取下载地址 (VIP会员免积分下载)
下载包内为原版高清套图和视频,绝不含第三方水印!
[在线观看] : 第1段 第2段 第3段
[套图预览] : 蜜汁猫裘 – 小白兔自拍 第1张
[视频名称] : V (1).mp4, V (2).mp4, V (3).mp4
[视频尺寸] : 960x1920
[视频大小] : 3mp4/37.5M
[视频时长] : 00:00:54
[视频编码] :
Stream #0:0(und): Video: h264 (Baseline) (avc1 / 0x31637661), yuv420p(tv, smpte170m/bt470bg/smpte170m), 960x1920, 8473 kb/s, 30.06 fps, 30 tbr, 1000k tbn, 2000k tbc (default)
Stream #0:1(und): Audio: aac (LC) (mp4a / 0x6134706D), 44100 Hz, stereo, fltp, 128 kb/s (default)
Stream #0:0(und): Video: h264 (Baseline) (avc1 / 0x31637661), yuv420p(tv, smpte170m/bt470bg/smpte170m), 960x1920, 8331 kb/s, 30.07 fps, 30 tbr, 1000k tbn, 2000k tbc (default)
Stream #0:1(und): Audio: aac (LC) (mp4a / 0x6134706D), 44100 Hz, stereo, fltp, 128 kb/s (default)
Stream #0:0(und): Video: h264 (Baseline) (avc1 / 0x31637661), yuv420p(tv, smpte170m/bt470bg/smpte170m), 960x1920, 6975 kb/s, 30.13 fps, 30 tbr, 1000k tbn, 2000k tbc (default)
Stream #0:1(und): Audio: aac (LC) (mp4a / 0x6134706D), 44100 Hz, stereo, fltp, 127 kb/s (default)
[视频预览] : 蜜汁猫裘 – 小白兔自拍 V (1).mp4

有用 (0)

评论加载中...