[最爱帆布鞋]ZAFBX-061 收藏

[套图名称] : [最爱帆布鞋]ZAFBX-061
[套图尺寸] : 2880x2160
[套图大小] : 240P+2V/585.9M
[下载方式] : 百度网盘
[下载地址] : 点此获取下载地址 (VIP会员免积分下载)
下载包内为原版高清套图和视频,绝不含第三方水印!
[在线观看] : 第1段 第2段
[套图预览] : [最爱帆布鞋]ZAFBX-061 第1张
[视频名称] : V (1).mov, V (2).mov
[视频尺寸] : 750x1000
[视频大小] : 2mov/26.8M
[视频时长] : 00:01:09
[视频编码] :
Stream #0:0(und): Video: h264 (High) (avc1 / 0x31637661), yuv420p(tv, smpte170m/bt709/bt709), 750x1000, 5203 kb/s, 23.81 fps, 29.97 tbr, 600 tbn, 1200 tbc (default)
Stream #0:1(und): Audio: aac (LC) (mp4a / 0x6134706D), 44100 Hz, stereo, fltp, 104 kb/s (default)
Stream #0:0(und): Video: h264 (High) (avc1 / 0x31637661), yuv420p(tv, smpte170m/bt709/bt709), 750x1000, 4918 kb/s, 21.79 fps, 29.97 tbr, 600 tbn, 1200 tbc (default)
Stream #0:1(und): Audio: aac (LC) (mp4a / 0x6134706D), 44100 Hz, stereo, fltp, 103 kb/s (default)
[视频预览] : [最爱帆布鞋]ZAFBX-061 V (1).mov

有用 (0)

评论加载中...